adding -2147483648 audio samples of silence adding -2147483648 audio samples of silence *** drop! 「Invalid timestamps pts=4078, dts=8589929661」 すなわち PTS が 00:00:00. mp4 -filter:v "setpts=2*PTS" output. mp4 -filter:v "setpts=0. The lower the PTS value, the faster the time-lapse video is generated. ffmpeg is a very fast video and audio converter that can also grab from a live audio/video source. audio_buffer_size. 4 -af asetrate=48000*1. mkv -filter:a "atempo=2. pts 拷贝自对应的 frame. 1", is the audio track. mka -ss 0 -to 341. My question is: Are there any alternatives to the atempo filter to use with avconv, or how to speed up audio AND video using avconv?. wav -b:a 128k output. mka ffmpeg -i test. AVPacket is one of the few structs in FFmpeg, whose size is a part of public ABI. One Lightning Audio amplifier model LA-600M 600 WATT This is a real american made by a REAL COMPANY item. Gottem $260 shipped, Take both for $160! Willing to hear offers but strictly cash only. J’ai eu besoin de récupérer un flux RTSP, protocole souvent utilisé pour streamer des vidéos sur Internet. mp4" -i "AudioToReplace. -ss is the starting time of an audio clip, -t is the duration, inputfile. The easiest way to install ffmpeg is to download a pre-built binary for your specific platform. mp3 -i video. See ffmpeg -filters to view which filters have timeline support. It will become the default at the next libavformat major bump. Crop an audio file. -c copy copies the first video, audio, and subtitle bitstream from the input to the output file without re-encoding them. This is the primary reason why we got no pts returned (pts were set to 0) when using early version of LibAV. - use stream specific pts timing for seeks. 162540 pts_time=0. FFmpeg image & video processing Image/video scaling Image/video cropping Cropdetect and ffplay Speeding-up & slowing-down video Basic slide show from images Advanced slide show from images Thumbnails -Selecting specific frames : I-frame extraction etc. When seeking (audio), use the DTS/PTS for the first frame, because that's all you have. Ask Question Asked 3 years ago. FFmpeg is a versatile video processing software supporting various video/audio formats for the standard ABR transcoding workflow. PA is configured (via null sinks) to take audio from output capture and the USB mic, and that bit works, but the recorded result is full of audible glitches, slowing down (speed and pitch) and crackles. The resulting video plays perfectly, up until the end of the 4th video. webm -filter_complex "[0:v][1:v]hstack=inputs=2[v];[a:0][1:a]amerge[a]" -map "[v]" -map "[a]" -ac 2 merged. I might actually go a little further and post another explanation of the command. By “decent”, I mean a high enough resolution so … Continue reading Real-time MPEG-2 encoding. ffmpeg problem: DTS/PTS invalid, clipping Post by WillJ » Sat Mar 16, 2013 10:42 am (I thought I'd move this topic here as it was in the rtmpdump section, inappropriately as its about ffmpeg). I noticed that audio pts was very large than video pts. h264': Metadata: encoder : Lavf53. Tried $ ffmpeg -i EE. 125*PTS" -an output8x. Get a new ffmpeg. See ffmpeg -filters to view which filters have timeline support. What I get is a video where the mic audio stays in sync, but the desktop audio goes back to being too. blob: 8fa85661414a7463c4395f74cde2497718674a08 [] [] []. danabrams 39 days ago Can't say I blame them for the removal of libndi-newtek, given the situation, but I wish FFMpeg (and gstreamer) had ndi support. Which ffmpeg command should I use to extract each frame number associated with its timestamp (time in ms from the starting of the video) ? Expected result : frame, ts 1, 34 2, 67 3, 101 4, 12. Wowza Streaming Engine doesn't use the edit lists that some video recorders use to synchronize audio and video in a. 3GP" on which I have applied my ffmpeg command. ffmpeg mosaic from wowza streams. Change audio volume level. The parameters which define two inputs where the second input will be delayed for N seconds, goes like this:. FFmpeg is a robust open-source framework designed for command-line-based processing of video and audio files, and widely used for format transcoding, basic editing (trimming and concatenation), video scaling, video post-production effects, and standards compliance. 5*PTS" output. Check below link for more details. mkv -filter:a "atempo=2. [3] avcodec_receive_packet() 输出 packet 时,packet. Fluent ffmpeg-API for node. It can be omitted most of the time in Python 2 but not in Python 3 where its default. I used it like this: ffmpeg -i source. See ffmpeg -filters to view which filters have timeline support. FFmpeg Formats Documentation: 3. Ultimately the output can be MPEG-DASH, HLS, Microsoft Smooth and/or progressive MP4/WebM/TS. How to reproduce:. Active 2 months ago. - FFmpeg Forum. 3-1 installed Available. Get a new ffmpeg. Now with the pts_time we can find a way to render this synched with audio pts_time or with a system clock. [y/N] y Output #0, h264, to 'output. Also, you can use various audio transcoding options to the output file as shown below. Conversion is the main class to handle FFmpeg conversions. Ffmpeg stream to webrtc. I am using ffmpeg library inside my project to extract packets from media stream. mkv -filter_complex "[0:a:0][0:a:1] amerge=inputs=2 [out]" -map "0:v" -c:v copy -map "[out]" -c:a aac -b:a 320k -ac 2 merged. FFMPEG Compile Videos - Forum dedicated to FFmpeg; a free / open source multimedia software project that produces libraries and programs to record, convert and stream audio and video. 092880 pts_time=0. I will try to explain how to use a couple of these…. The detailed explanation: ffmpeg -i v1. I noticed that audio pts was very large than video pts. This device allows playing and grabbing from an Audio-CD. mp4 at High Profile, preserves the colour space of the input file, and uses a default preset. vob -f avi -vcodec mpeg4 -b 800k -g 300 -bf 2 -acodec libmp3lame -ab 128k snatch. ogg, or any other audio formats. The ffmpeg command used to get information of a video is: Ffmpeg -i I have a video named "ffmpeg_macdonald. mp4 and video2. FFmpeg image & video processing Image/video scaling Image/video cropping Cropdetect and ffplay Speeding-up & slowing-down video Basic slide show from images Advanced slide show from images Thumbnails -Selecting specific frames : I-frame extraction etc. c), and try buffering and doubling up video frames (video is most unreliable, and often slower than the audio) to ensure consistency, and bam, problem solved!. It can also convert between arbitrary sample rates and resize video on the fly with a high quality polyphase filter. Such timestamps must be converted to true pts/dts before they are stored in AVPacket. 1997-2000 Toyoya Camry Car Audio (NE Salem) < image 1 of 1 > condition: good. Does everyboby know which pts and dts values do i need to send to wowza server when using FFmpeg for a 50i video. I am trying to mux H264 encoded data and G711 PCM data into mov multimedia container. * ffmpeg-mpegts-vbr: Changes to support VBR Transport Streams * 2 graphs showing the timing in the first 1000 TS-packets of my test- stream, illustrating the effect of the changes Both patches are against svn19750. , in the most generic terms. png -c copy -map 0 -map 1 -metadata:s:v title="Album cover" -metadata:s:v comment="Cover (Front)" out. Hole stream duration is ~5s, but audio PTS goes to ~334s. r/ffmpeg: FFmpeg is the leading multimedia framework, able to decode, encode, transcode, mux, demux, stream, filter and play pretty much anything … Press J to jump to the feed. Change 3) "Double buffer" ffmpeg_decode_video_frame() so we can look forward at the next pts within ffmpeg_decode_video_frame() for all situations instead of only in forward step searches occuring in ffmpeg_fetchibuf() Change 4) Use ffmpeg_decode_video_frame_scan() in the aforementioned forward step search to catch any skipped frames. 0 Lsize= 1684kB. I am taking dranger's first tutorial as the source and I will build it using Visual C++ 6. ffmpeg的PTS,DTS的问题 xmfish 发布于 2013/01/28 09:30. Support and community hang-out spot for Ogre3D While the ffmpeg dependency makes sense, any audio dependency will probably interfere with whatever. FFmpeg sometimes has a hard time figuring out the input frames count. 2) Seek does not work after 12 sec. ffmpeg mosaic from wowza streams. The output is (almost) empty. This is undocumented, but both LibAV and FFmpeg do so internally. @: pts' Linux audio recording tutorial. 2 Fix audio stream selection with audio from another file V1. Tried $ ffmpeg -i EE. Make use of Corrupt Video Repair software to easily repair any of the video file with Meizu 16s Pro phone; it requires just few steps to repair any of the damaged or corrupted video files. -c copy copies the first video, audio, and subtitle bitstream from the input to the output file without re-encoding them. 04 or newer can just install ffmpeg from the repository. 112 STAT: VOBU 8817 at 1358MB, 1 PGCs CHAPTERS: VTS[1/1] 0. FFmpeg is a very fast video and audio converter that can also grab content from a live audio or video source. With ffmpeg, you can select the output format to which the audio and video frames are encoded before computing the CRC for each packet by specifying the audio and video codec. 045 なのに、 DTS が 26:30:43. ffmpeg problem: DTS/PTS invalid, clipping Post by WillJ » Sat Mar 16, 2013 10:42 am (I thought I'd move this topic here as it was in the rtmpdump section, inappropriately as its about ffmpeg). ; After the semicolon (:) may be the stream specifier - supposing that you have only one video and one audio streams in your input files, you may simply use v for the video stream, and a for the audio stream. A complete, cross-platform solution to record, convert and stream audio and video. Some options can be changed during the operation of the filter using a command. The drop parameter resets input timestamps and generates new ones. 0*PTS" output. Get a new ffmpeg. - 27 August 2011 - Update to upstream FFmpeg 0. pts_ptr is a pointer we use to inform audio_callback the pts of the audio packet. Now we want to implement a video clock similar to the audio clock we had last time: an internal value that gives the current time offset of the video currently being played. 663 なので無効なタイムスタンプである、 というエラー出力。. 10 * 11 * FFmpeg is distributed in the hope that it will be useful, 12. It includes libavcodec - the audio/video codec library. FFmpeg Formats Documentation: 3. It's a very powerful tool, but making the most use of it can be complicated for new users. It will become the default at the next libavformat major bump. mp3 outputfile. m4a libmp3lame¶. mp3 Convert Audio for FreeSWITCH (or Asterisk) Converts WAV to various MP3 formats. The part that confused me was the statement that "ffmpeg reorders the packets so that the DTS of the packet being processed by avcodec_decode_video() will always be the same as the PTS of the frame it returns". Time difference in AVStream->time_base units from the pts of this packet to the point at which the output from the decoder has converged independent from the availability of previous frames. mp4 -filter:v "crop=1080:560:0:650" -c:a copy out. 18 * License along with FFmpeg; if not, write to the Free Software 19 * Foundation, Inc. mp4 />//>/This resulted in really bad audio quality. While this sounds straight forward on the face of it, the interplay of filters and controls is impossible to predict without extensive experience. 6 Changing options at runtime with a command. Speed up or Slow down the audio. 208980 However, after I transcoded it using the following ffmpeg command, the start time of the audio track became negative and it causes playback issue on Tizen3. We use cookies for various purposes including analytics. GitHub Gist: instantly share code, notes, and snippets. 0*PTS" output. For example, if there are two succesive frames shown at timestamps 1 and 2, and you want to speed up the video, those timestamps need to become 0. The resulting command line looks somewhat complex. For the developers that use FFmpeg in their software. If you care to sync the audio speed with the. pkt->pts, pkt->dts and pkt->duration are always set to correct values in AVStream. Goal: I have a video w/ audio, and want to replace just the audio in a middle segment of the video without affecting the rest of the video and audio. The elementary stream is packetized by encapsulating sequential data bytes from the elementary stream inside PES. This dilemma is intrinsic to ffmpeg, and ffmpeg-python tries. ffmpeg's mpeg2video encoder only supports "zero" and "epzs" as motion estimation methods; you could omit this option and go with the default, but as a word of warning, if you are outputting to one or more additional codecs (e. setpts ('PTS-STARTPTS') basically resets the timestamp to 0 after a trim filter has been passed. Active 2 months ago. Hi, These PTS and DTS used for sync between audio and video data while encoding and presentation. - use stream specific pts timing for seeks. 20x speed up: -vf setpts=1/20*PTS 5x slow down: -vf setpts=5*PTS 🎥 A series of video tutorials on FFmpeg, in which I share the experience of using this program for various everyday needs. When seeking (audio), use the DTS/PTS for the first frame, because that's all you have. 2, require Yasm external dependency. $ ffmpeg -i input. The avi file has only one video and one audio stream. SDL started a thread that made callbacks to a function we defined every time it needed audio. FFmpeg is a complete solution to record, convert, edit and stream audio and video. 97 A-V:18166. I am creating AVPacket from encoded data and initially the PTS and DTS value of video/audio frames is equivalent to AV_NOPTS_VALUE. FFmpeg is powerful audio and video converter, so It’s possible to convert media files between different formats. Adding an extra step by extracting a raw stream and retiming that will work. Crop an audio file. mkv -filter:v "setpts=0. c (which is now transcoding. FFMPEG can use a suite of input commands. This command will make the video 8x (1/8) faster or use setpts=4*PTS to make the video 4x slower. You can also use the -f flag to force output format, but again, the tool will try to guess the end result from your command. FFMPEG Compile Videos - Forum dedicated to FFmpeg; a free / open source multimedia software project that produces libraries and programs to record, convert and stream audio and video. ffmpeg -i input. Ask Question Asked 3 years ago. ffmpeg problem: DTS/PTS invalid, clipping Post by WillJ » Sat Mar 16, 2013 10:42 am (I thought I'd move this topic here as it was in the rtmpdump section, inappropriately as its about ffmpeg). For example to copy with ffmpeg the entire Audio-CD in /dev/sr0,. Generated on Fri Oct 26 02:39:50 2012 for FFmpeg by 1. For example: To extract sound from a video and save it as MP3, you can use command line: $ ffmpeg -i video1. What do I mean by this? Well, you can easily convert from one format to another, extract audio from a video, compress a video and even extract pictures from a video. 182000 -acodec copy part1. crindu Posts: 1 Joined: Sun Mar 18, 2018 5:17 pm. @: pts' Linux audio recording tutorial. * Only set this if you are absolutely 100 % sure that the value you set * it to really is the pts of the first frame. It's not as simple as getting the is->audio_clock value, thought. My question is: Are there any alternatives to the atempo filter to use with avconv, or how to speed up audio AND video using avconv?. I am adjusting a video (with audio track) using ffmpeg, with the goal being to move the time position of some given points of the video as precisely as possible in time (ideally, with an accuracy o. pts != frame->pkt_pts in AVFrame? ffmpeg. yum list ffmpeg ffmpeg-devel mplayer mencoder flvtool2 re2c yasm nasm libvpx libvpx-devel amrnb-devel amrwb-devel libid3tag libvorbis-devel lame libogg libwmf xvidcore xvidcore-devel facc faad2 a52decoder *vorbis* ruby ruby-libs ruby-devel --enablerepo=atrpms -q Installed Packages libvpx. This dilemma is intrinsic to ffmpeg, and ffmpeg-python tries. mp4 until the ffmpeg process is stopped: ffmpeg -stream_loop -1 -i input. mp4 -filter:v -r 30 "setpts=2. Of course this is set for each audio track individually. Place video2. seems to work fine until i write into the file with av_interleaved_write_frame, where i get an access violation. mkv -vf "setpts=0. 000 INFO: Generating VTS with the following video attributes: INFO: MPEG version: mpeg2 INFO: TV standard. Tutorial 04: Spawning Threads Code: tutorial04. 374000 -acodec copy part2. Then, the raw video data is transferred into MediaCodec's APIs in the Java layer for hardware decoder. 10 * 11 * FFmpeg is distributed in the hope that it will be useful, 12. The detected dimensions correspond to the non-black area of the input video. mp4 and video2. Without -fflags +igndts a proper output is created. 5 [12 August 2015] Add attempt better fps detection for videos ffmpeg thinks are 1000 fps (scans 500 frames in middle of video so can introduce a delay when loading) V1. As an exercise in learning basic FFmpeg syntax and learning how to transcode between formats, we will begin with our destEarth. Now we can finally implement our get_audio_clock function. The reason is maybe, that the sampling rate of the output was transformed to 64. This may only be set when the video codec is not set or set to rawvideo. mp4 -pix_fmt yuv420p -r 23. SDL started a thread that made callbacks to a function we defined every time it needed audio. pixel_format. The lower the PTS value, the faster the time-lapse video is generated. mov container when the audio and video start at different timecodes. Install Required Packages Although MPlayer can also be used, FFmpeg seems more refined when dumping or clipping specific audio chapters from DVD or Blu-Ray media. pts, despite the documentation claiming that frame->pkt_pts is the. FFmpeg is a versatile video processing software supporting various video/audio formats for the standard ABR transcoding workflow. 116100 pts_time=0. avi -vcodec mjpeg -q:v 0 -f avi -acodec libmp3lame -vf scale=1280x720:dst_format=rgb8 - | ffmpeg -i - -lavfi "[0:v]format=gbrp12le,scale=1280x721:dst_format=gbrp12be,scale=src_format=gbrp12le,scale=1280x720,setsar=1/1[out]" -map "[out. Does everyboby know which pts and dts values do i need to send to wowza server when using FFmpeg for a 50i video. The closest I've come is using this: ----- ffmpeg. Have a short video clip ripped from a DVD (probably using mplayer -dumpstream). Some of them are not explained very well in the documentation, and many websites have confusing postings by well-meaning people trying to make use of the switches. 2 Fix audio stream selection with audio from another file V1. mkv -c:a copy incorrect-audio. – Gyan Dec 22 '16 at 13:02. Also, you can use various audio transcoding options to the output file as shown below. el7_0 @base libvpx-devel. 2 [13 June 2015. Time Stamp? PTS? DTS? ffmpeg 으로 데이터를 저장하든 혹은 어디로 쏴주든 할 때 제일 짜증나는 것들 중에 하나가 바로 PTS(Presentation Time Stamp) 와 DTS(Decoding Time Stamp)값 설정이다. 00001 /* 00002 * Audio Interleaving functions more details. If you want a battle-tested and more sophisticated version, check out my module MoviePy. Take a look at this example for some ideas. mkv ffmpeg -i input. If you only want an audio output, like above, ffmpeg will guess and assume you also meant -vn. The system time clock (STC) decoder, when properly implemented, provides a highly accurate time base that is used to synchronize audio and video elementary streams. 디코딩 된 오디오 패킷 인코딩의 일부로 avcodec_fill_audio_frame()을 사용하고 있습니다. down vote accepted If you are looking just for stream copy you can do this quite easily. -af "aresample=async=1:min_hard_comp=0. To convert a video file to audio file, just specify the output format as. For example, to compute the CRC of each decoded input audio frame converted to PCM unsigned 8-bit and of each decoded input video frame converted to MPEG-2 video, use the. mkv -codec:video libx264 -codec:audio copy /volume1/video/test. * FFmpeg is free software; you can redistribute it and/or * modify it under the terms of the GNU Lesser General Public * License as published by the Free Software Foundation; either * version 2. adding -2147483648 audio samples of silence adding -2147483648 audio samples of silence *** drop! 「Invalid timestamps pts=4078, dts=8589929661」 すなわち PTS が 00:00:00. c (which is now transcoding. mp4, since it has the greatest number of channels. There are three output files specified, and for the first two, no -map options are set, so ffmpeg will select streams for these two files automatically. The codecs used in this tutorial is libx264 for video and libfaac for audio. The new name better expresses what the variable is. Hole stream duration is ~5s, but audio PTS goes to ~334s. I have encountered an issue when seeking that I have remedied by changing my seek order, but. 374000 -acodec copy part2. audio=(a0) AudioDubEx?(video,audio) From the ffplay console log. This article shows how easy it is to read or write video frames with a few lines of Python, by calling the external software FFMPEG through pipes. Most of the code in here will be in c but don't worry: you can easily understand and apply it to. Combine audio from video1. If you use. aac The above example will extract the audio stream from the input video, slow it down by 2 and reencode it into an AAC audio file. 125*PTS" -an output8x. For example: To extract sound from a video and save it as MP3, you can use command line: $ ffmpeg -i video1. Mysteriously the input. mp4 indicates the input file, while rawvideo/rgb24 asks for a raw RGB output. This command will make the video 8x (1/8) faster or use setpts=4*PTS to make the video 4x slower. For files with differing start times of video and audio streams, the PTS values should not be changed else sync will be lost. Audio options-acodec aac - Uses the internal FFmpeg AAC codec for the audio processing. I was looking for a tutorial/book that would teach me how to start to use FFmpeg as a library (a. mkv -filter:a "atempo=2. 2 allows attackers to cause a denial of service (application crash caused by a divide-by-zero error) with a user crafted audio file when converting to the MOV audio format. ffmpeg mosaic from wowza streams. Popen, the bufsize parameter must be bigger than the size of one frame (see below). For audio it may contain several compressed frames. The closest I've come is using this: ----- ffmpeg. 139320 pts_time=0. I think I understand the statements intent. Also, you can use various audio transcoding options to the output file as shown below. tw/2013/06/ffmpeg-h264-mp4. ffmpeg -ss 00:01:30 -t 30 -acodec copy -i inputfile. With ffmpeg, you can select the output format to which the audio and video frames are encoded before computing the CRC for each packet by specifying the audio and video codec. Users of Ubuntu 15. mp4, which has the highest resolution among all the input video streams. mp4 and video2. avi This is a typical DVD ripping example; the input is a VOB file, the output an AVI file with MPEG-4 video and MP3 audio. More application forms in Swedish. 6 Changing options at runtime with a command. La ligne de commande est simple :. Ask Question Asked 3 years ago. It's not as simple as getting the is->audio_clock value, thought. The reason is maybe, that />/the sampling rate of the output was transformed to 64. root #emerge --ask media-video/ffmpeg (If somebody successfully uses MPlayer/MPlayer2 to dump PCM specified chapters, feel free to add it to this Wiki page and retitle appropriately. 25,atempo=1/1. 搞清楚各个time_base的来源,对于阅读ffmpeg的代码很重要。 * Decoding: pts of the first frame of the stream in presentation order, in stream time base. ffmpeg -i snatch_1. The closest I've come is using this: ----- ffmpeg. 4 -af asetrate=48000*1. I will use this to capture the desktop with x11grab, audio from pulse and webcam from video4linux2. I have encountered an issue when seeking that I have remedied by changing my seek order, but. And so I request that FFmpeg team inspect this problem. Creating the history video is time-consuming, since it has to process all the frames in the entire video. This is undocumented, but both LibAV and FFmpeg do so internally. Next I tried writing the audio and video to separate files, changing the format of the audio, and recombining: $ ffmpeg -i EE. MPEG-4), you might be using another motion estimation method, and without an explicit motion estimation method specified for the mpeg2video encoder, ffmpeg. *http://dranger. Getting video Information using ffmpeg. A pure ffmpeg solution would be perfect, but perhaps another tool is able to handle the subtitles better. [29 Jan 2012 13:20:11 EST] - Update against upstream FFmpeg 0. FFmpeg is a complete, cross-platform solution to record, convert and stream audio and video. This is used in conjunction with the -vsync parameter using the 1 option which will retime the PTS/DTS timestamps accordingly. Summary changed from PTS: DTS: invalid, clipping with pcm audio codec to PTS: DTS: invalid, clipping when recording alsa comment:10 Changed 7 years ago by MrNice I removed the line 193. pixel_format. Of course this is set for each audio track individually. FFmpeg will only read ID3v1 tags if no other metadata is // available, so add a metadata entry to ensure some is always present. FFmpeg checks the input file for a valid format and makes asumptions about the video and audio format for the output, based only on the specified output format (aka "container" or "wrapper"), MP4. FFmpeg is a command-line tool that uses commands to convert audio or video formats. mp4 -vn -ar 44100 -ac 2 -ab 320 -f mp3 output. 5" -vn output. Looking For The Best Performance? If you want to see how many different systems compare performance-wise for this test profile, visit the performance showdown page. To increase video play back speed command line is: $ ffmpeg -i video. -sync type Set the master clock to audio ("type=audio"), video ("type=video") or external ("type=ext"). Original 2012-11-16, Updated 2016-04-05: cleanup and information about overlaying images. It includes libavcodec, the leading audio/video codec library used by several other projects. It seems we should remove following code from avisynth_read_packet function. The video itself is more or less a slideshow with a high quality video in the beginning. Thanks for your assistance. FFmpeg is a comprehensive multimedia encoding and decoding library that consists of nu-merous audio, video, and container formats. Install Required Packages Although MPlayer can also be used, FFmpeg seems more refined when dumping or clipping specific audio chapters from DVD or Blu-Ray media. My question is: Are there any alternatives to the atempo filter to use with avconv, or how to speed up audio AND video using avconv?. mp4 -filter:v "setpts=0. At first, you would think that this would be as simple as updating the timer with the current PTS of the last frame to be shown. Active 3 years ago. ts -hide_banner -show_frames [mpegts @ 0x7fdafa803a00] start time for stream 0 is not set in estimate_timings_from_pts Input # 0, mpegts, from 'XXX. If you want to slow it down even more, you can use the atempo filter more than once. 436 // input pipe may have been closed by the program that ran ffmpeg. The parameter for atempo must be between 0. FFmpeg Formats Documentation: 3. Speed up or Slow down the audio. Do initialization using av_register_all(); // 2. Summary changed from PTS: DTS: invalid, clipping with pcm audio codec to PTS: DTS: invalid, clipping when recording alsa comment:10 Changed 7 years ago by MrNice I removed the line 193. This library abstracts the complex command-line usage of ffmpeg into a fluent, easy to use node. 25,atempo=1/1. mkv The filter works by changing the presentation timestamp (PTS) of each video frame. HANDY TIP: Using FFprobe for stream analysis - Forum dedicated to FFmpeg; a free / open source multimedia software project that produces libraries and programs to record, convert and stream audio and video. vc1: make P-frame deblock filter bit-exact. As noted here, we could speedup audio with ffmpeg using: $ ffmpeg -i input. Multiplexing to a TS. blob: 8fa85661414a7463c4395f74cde2497718674a08 [] [] []. The ffmpeg command used to get information of a video is: Ffmpeg -i I have a video named "ffmpeg_macdonald. pts, despite the documentation claiming that frame->pkt_pts is the. / filters / ffmpeg_audio_decoder. Some of them are not explained very well in the documentation, and many websites have confusing postings by well-meaning people trying to make use of the switches. avi -vn -ar 44100 -ac 2 -ab 192 -f mp3 audio3. Unix & Linux Stack Exchange is a question and answer site for users of Linux, FreeBSD and other Un*x-like operating systems. FFMPEG can use a suite of input commands. mp4 until the ffmpeg process is stopped: ffmpeg -stream_loop -1 -i input. Set audio device buffer size in milliseconds (which can directly impact latency, depending on the device). Examples: Write an mp3 with an ID3v2. pts, despite the documentation claiming that frame->pkt_pts is the. html 這篇文章-(void)transferToMP4. Download FFmpeg. It is a work in progress. 374000 -acodec copy part2. mp4 and video2. mp4 //half speed ffmpeg -i input. how to drop an input stream. 000000 best_effort_timestamp=0 best_effort_timestamp_time=0. FFmpeg is a robust open-source framework designed for command-line-based processing of video and audio files, and widely used for format transcoding, basic editing (trimming and concatenation), video scaling, video post-production effects, and standards compliance. Open input file usin. Now we want to implement a video clock similar to the audio clock we had last time: an internal value that gives the current time offset of the video currently being played. 000000 pkt_dts=0 pkt_dts_time=0. => ffmpeg -i input. My code is: ffmpeg -y -f x11grab -f alsa -i hw:0 -framerate 30 -video_size 1600x900 -i :0. mp4 20 pixels down and 40 pixels over. ffmpeg \ -i input_file \ -filter: v modifies the presentation time stamp (PTS)-an no audio stream (mnemonically «audio no») output_file path, name and extension. FORUM CYBER_CODE | here is not the place where creative people envious person. - decent native animated GIF encoding - asetrate filter - interleave filter - timeline editing with filters - vidstabdetect and vidstabtransform filters for video stabilization using the vid. Mysteriously the input. By default, ffmpeg includes only one stream of each type (video, audio, subtitle) present in the input files and adds them to each output file. c in FFmpeg before 4. It is a command line video software for Windows, Mac and Linux. License along with this library; if not, write to the Free Software. Check below link for more details. avi but i get this error:. youtube-dl -x uses ffmpeg out of the box to extract mp3 audio from a video. Hi, I've spent all day looking for a solution to this but to no avail. mp4 in the middle. mpg into dvdauthor generated exactly the same synchronization errors. mkv Speeding up/slowing down audio. mpg -map 0:1 -map 0:2 -target ntsc-dvd EEout. Can be AV_NOPTS_VALUE if it is not stored in the file. 154811, bitrate: 1963 kb/s Program 1 Stream # 0:0[0x102]: Data: timed_id3 (ID3 / 0x20334449) Stream # 0:1[0x100]: Video: h264 (Main) ([27][0][0][0] / 0x001B), yuv420p (tv), 1024x576 [SAR 1:1 DAR 16. Creates colored blank video with blank audio for using between videos. The new name better expresses what the variable is. ffmpeg -y -f dshow -s 640x480 -r:v 15 -i video="Integrated Webcam":audio="Microphone (Realtek High Defini" -c:v libx264 -pix_fmt yuv420p -vb 450 -an -map 0:0 -f rtp rtp://127. Generated on Fri Oct 26 02:39:50 2012 for FFmpeg by 1. ffmpeg is a very fast video and audio converter that can also grab from a live audio/video source. atempo changes the tempo without changing the frequency. Creating a mosaic/tile of screenshots from a movie Seeking and cutting sections of a video. The audio data is decoded by FFmpeg directly, which does not cost much CPU workload. Note that in the following examples, the audio stream is not changed, so it should ideally be disabled with -an. Ffprobe Timeout Ffprobe Timeout. mp4 -vf "setpts=2*PTS" output,mp4. October 5th, 2019, Bright Lights. 1, and will multiplex it with the video to a new MKV without complaining, but if I try to play that new MKV in VLC, VLC crashes! Remuxing to MKV does work if I transcode the audio from AAC to AC3 or EAC3 at this stage, but ideally I'd like to keep the original quality. It can be omitted most of the time in Python 2 but not in Python 3 where its default. 116100 pts_time=0. The second stream, called “stream #0. mp3" -filter_complex "[0:a]atrim=0:316,asetpts=PTS-STARTPTS. $ ffmpeg -i input. Getting video Information using ffmpeg. mkv -filter:a "atempo=2. The resulting command line looks somewhat complex. For example, the -f option specifies the output container. simplest with hstack (1) simplest with hstack (2) simplest with vstack (1) simplest with vstack (2) Using crop, and hstack (or vstack) Using `alphamerge'. Ffmpeg transcode audio. c in FFmpeg before 4. I would imagine it having something to do with the time base. audio_buffer_size. My co-worker checked audio PTS information of problematic based on avidemux and Audio PTS is just OK. 04 or newer can just install ffmpeg from the repository. and correct pts should be. * Only set this if you are absolutely 100 % sure that the value you set * it to really is the pts of the first frame. A: Shifting one track to 0 keeping sync with audio: first video pts = 0 first audio pts = 32 B: Using padding (to keep sync), having audio pts=video pts first video pts = 40 first audio pts = 40 C: This would be the best. I am attempting to seek both audio and video streams for an mp4 using the ffmpeg av_seek_frame method. To increase video play back speed command line is: $ ffmpeg -i video. $ ffmpeg -i input. In the end, seeking was my biggest headache for my FFmpeg decoding plugin. FFmpeg There are a lot of questions and articles how to concatenate multiple videos into one with FFmpeg. I checked my timebase to be 1/44100 and some pts values : 70754080000, 70759090000, back to back packet pts values. For example: To extract sound from a video and save it as MP3, you can use command line: $ ffmpeg -i video1. Check below link for more details. The name of the command is the name of the option and the argument is. 我将ffmpeg(版本0. At first, you would think that this would be as simple as updating the timer with the current PTS of the last frame to be shown. ffmpeg [input-options] -i [input-file] [output-options] [output-stream-URI]Where: [input-options] apply to the input, or source, file. mp4 -filter:v "setpts=0. -b:a 128k - Specifies the bitrate of the audio as 128k. ffmpeg itsoffset for audio not working. Hls Fragment Hls Fragment. mkv -c:a copy incorrect-audio. More information Maritime radio and radio on aircrafts. It calculate necessary cropping parameters and prints the recommended parameters through the logging system. I'm presuming your output limits it to running at 1x). At its core is the FFmpeg program itself, designed for command-line-based processing of video and audio files, and widely used for format transcoding, basic editing (trimming and concatenation), video scaling, video post. mp3 outputfile. usage: ffmpeg [options] [[infile options] -i infile]… {[outfile options] outfile}… Getting help:-h — print basic options-h long — print more options-h full — print all options (including all format and codec specific options, very long) See man ffmpeg for detailed description of the options. There are three output files specified, and for the first two, no -map options are set, so ffmpeg will select streams for these two files automatically. Summary of the bug: When copying the streams of a mpeg-ts containing h. BOSE CAR AUDIO SPEAKERS - $65 OBO (Rosemount) < image 1 of 2 > condition: excellent make / manufacturer: BOSE. It seems we should remove following code from avisynth_read_packet function. 打开音频:int audio_stream_component_open(VideoState *is, int stream_index) { AVFormatContext *ic = is->ic; AVCodecContext *codecCtx;. 1, and will multiplex it with the video to a new MKV without complaining, but if I try to play that new MKV in VLC, VLC crashes! Remuxing to MKV does work if I transcode the audio from AAC to AC3 or EAC3 at this stage, but ideally I'd like to keep the original quality. 5 min (of the sped up video). ffmpeg -i input. mp4 video file to output. mp4 -filter:v "setpts=2*PTS" output. MPEG-2 transport stream demuxer. The output of. video operators can be used to reference the audio/video portions of a stream so that they can be processed separately and then re-combined later in the pipeline. This is due to ffmpeg's behavior, as has been discussed in detail in #26, #208 and shown in this example. mp4 //half speed with fps 30. output format : mp3. Goal: I have a video w/ audio, and want to replace just the audio in a middle segment of the video without affecting the rest of the video and audio. rockford corporation Not a cheap Chinese item with crapy parts which explode. 25,atempo=1/1. This works in a somewhat interesting manner. Because audio PTS by ffmpeg have 12 sec but real audio has 30 sec. mkv is a Matroska container file and accepts video, audio and subtitle streams, so ffmpeg will try to select one of each type. -b:a 128k - Specifies the bitrate of the audio as 128k. FFmpeg is a comprehensive multimedia encoding and decoding library that consists of nu-merous audio, video, and container formats. For audio it may contain several compressed frames. audio_pts Sets the audio packet timestamp source. You can change the speed of your video using the setpts (set presentation time stamp) filter of FFmpeg. pkt->pts = stream->read;<-----remove this line. 264 & VP8? I need to convert videos, usually mp4 files to smaller sized mp4s and webms. 4, the following command creates output. It seems we should remove following code from avisynth_read_packet function. Video may have delayed frames, which means the input frame and output frame may refer to differently ordered units. mp4 -filter:v "setpts=2*PTS" output. This example will: Place video1. 00017 * 00018 * You should have received a copy of the GNU Lesser General Public 00019 * License along with FFmpeg; if not, write to the Free Software { 00115 // rewrite pts and dts to be decoded time line position 00116 pkt->pts = pkt->dts = aic->dts ; 00117. The part that confused me was the statement that "ffmpeg reorders the packets so that the DTS of the packet being processed by avcodec_decode_video() will always be the same as the PTS of the frame it returns". blob: ff99913d5f8ffb7a2ee0ee0a1b19237c969a8913 [] [] []. 4 -af asetrate=48000*1. mp4 The -r option before the input tells FFmpeg to read the specified number of frames in constant mode. Nothing wrong with it, just going a different route w my sounds. Getting video Information using ffmpeg. mp4 ----- It results in the audio being replaced in the beginning of the video and the. It's possible to use FFmpeg to remux content from the command line. Now we're going to do the same sort of thing with the video display. 93 seconds Transition is 1 second Command line using ffmpeg: ffmpeg -i 1. The FFmpeg libav provides these info through its API. mp4 -filter:v -r 30 "setpts=2. QR Code Link to This Post. FFmpeg, knihovny svobodný multiplatformní software využívají jej MPlayer, VLC media player, Avidemux, ffdshow knihovny: libavutil (matematické rutiny, pro zjednodušení programování) libavcodec (audio a video kodeky) libavformat (muxery a demuxery/splittery pro kontejnery) libavdevice (grabování a renderování přes V4L(2), VfW. FFMPEG Compile Videos - Forum dedicated to FFmpeg; a free / open source multimedia software project that produces libraries and programs to record, convert and stream audio and video. Joining videos in Xabe. Hole stream duration is ~5s, but audio PTS goes to ~334s. 5*PTS" output. For audio, it will select stream 3 from B. , in the most generic terms. The second stream, called “stream #0. audio=(a0) AudioDubEx?(video,audio) From the ffplay console log. First Video 14. To double the speed of audio:. 2 Free Download - VideoHelp. It makes sense to somewhat enhance the speech clarity, reduce background static and environmental noise, etc. For the further development you better study the documentation and example code of ffmpeg. c Commit Line Data; 85f07f22: 1 /* 115329f1: 2 * FFmpeg main. Recent ffmpeg also has a flag to supply the end time with -to. in case of MPEG, display order of IBP is coded as IPB, and the pts of input is different from output, and the reordering introduces delay between input pts and. FFmpeg is a versatile video processing software supporting various video/audio formats for the standard ABR transcoding workflow. down vote accepted If you are looking just for stream copy you can do this quite easily. blob: 8fa85661414a7463c4395f74cde2497718674a08 [] [] []. If you use a larger value, the video will display in slower motion. $ ffmpeg -i input. mp3 -i cover. For video, it will select stream 0 from B. It's not as simple as getting the is->audio_clock value, thought. If the output file is smaller you know that the video is written. 2) Seek does not work after 12 sec. Note that this filter is not FDA approved, nor are we medical. wav -b:a 128k output. FFmpeg is powerful audio and video converter, so It’s possible to convert media files between different formats. exe -i sourcefile. com/2017/07/18/commandline-media-helper/ https://motiondesigntechnology. GitHub Gist: instantly share code, notes, and snippets. I am using ffmpeg library inside my project to extract packets from media stream. The line above works well for me, especially as FFmpeg now supports crossbar devices. -ss is the starting time of an audio clip, -t is the duration, inputfile. 20x speed up: -vf setpts=1/20*PTS 5x slow down: -vf setpts=5*PTS 🎥 A series of video tutorials on FFmpeg, in which I share the experience of using this program for various everyday needs. setpts ('PTS-STARTPTS') basically resets the timestamp to 0 after a trim filter has been passed. The solution is specifying -fflags +genpts (must be before the input file is specified with -i ). wav -b:a 128k output. 'fix_teletext_pts' Overrides teletext packet PTS and DTS values with the timestamps calculated from the PCR of the first program which the teletext stream is part of and is not discarded. x - download from here if you don't have it: or compile the latest version from source: Here's a script I use to resize my GoPro. to the PCR, PTS. Now we're going to do the same sort of thing with the video display. Introduction In this post, we will see how you can use FFmpeg libraries in your application and decode movie files. You need ffmpeg version 2. 6 Changing options at runtime with a command. Example command. mka -ss 351. [Libav-user] Updated libav/ffmpeg tutorial. ffmpeg -i v1. 880 STAT: VOBU 8816 at 1358MB, 1 PGCs INFO: Video pts = 0. GitHub Gist: instantly share code, notes, and snippets. Examples To compute the SHA-256 hash of the audio and video frames in INPUT, converted to raw audio and video packets, and store it in the file out. For files with differing start times of video and audio streams, the PTS values should not be changed else sync will be lost. I will try to explain how to use a couple of these…. mp3" -filter_complex "[0:a]atrim=0:316,asetpts=PTS-STARTPTS. Note that this filter is not FDA approved, nor are we medical. A: Shifting one track to 0 keeping sync with audio: first video pts = 0 first audio pts = 32 B: Using padding (to keep sync), having audio pts=video pts first video pts = 40 first audio pts = 40 C: This would be the best. mp3 -i cover. 4 [1 August 2015] Update ffdlls to 2. Now with the pts_time we can find a way to render this synched with audio pts_time or with a system clock. Press question mark to learn the rest of the keyboard shortcuts. adding -2147483648 audio samples of silence adding -2147483648 audio samples of silence *** drop! 「Invalid timestamps pts=4078, dts=8589929661」 すなわち PTS が 00:00:00. audio_buffer_size. c Commit Line Data; 85f07f22: 1 /* 115329f1: 2 * FFmpeg main. 437 677 * Audio encoders may 756 "pkt_pts:%s pkt_pts _time:%s pkt. So, ffmpeg -y -i left. ffmpegの使い方やコマンド一覧をまとめました。動画ファイルの切り取り(カット)や幅や高さの変換(リサイズ)、動画を静止画に切り出す処理、フレーム補間ができます。ffmpegはコマンドラインで使用することができる動画処理関連のフリーのプログラムです。. FFmpeg is a robust open-source framework designed for command-line-based processing of video and audio files, and widely used for format transcoding, basic editing (trimming and concatenation), video scaling, video post-production effects, and standards compliance. I am trying to mux H264 encoded data and G711 PCM data into mov multimedia container. I would imagine it having something to do with the time base. Re: Fixing bad DTS/PTS without reencode Post by rogerdpack » Mon Jan 21, 2013 3:57 pm too bad there was no resolution to this, I know with DVD rips, ffmpeg reports the wrong durationbut with mencoder -forceidx it "fixes it right up" I wish there were an ffmpeg equivlaent. [[email protected]: ~]$ ffprobe -hide_banner 1. BOSE CAR AUDIO SPEAKERS - $65 OBO (Rosemount) < image 1 of 2 > condition: excellent make / manufacturer: BOSE. * ffmpeg-mpegts-freq-period-rename2: addition to the previous patch: I forgot one. pts_ptr is a pointer we use to inform audio_callback the pts of the audio packet. Lookin to sell 2 brand new SKAR Audio subs! Just came in, still in packaging. 0*PTS" output. 1 post • Page 1 of 1. Which ffmpeg command should I use to extract each frame number associated with its timestamp (time in ms from the starting of the video) ? Expected result : frame, ts 1, 34 2, 67 3, 101 4, 12. SDL started a thread that made callbacks to a function we defined every time it needed audio. 3-1 installed Available.
5wvl9zl43qml h25fss2ibewin04 y09bf8x79n11j tl2u830oc6 k79mqwginir9 z2rxtii15cvvf8v ibfygqscez sbw4h1wzjan3w amleyrloxrj v4fwnfppi2n iob3yeq53aj 0wpqkpfr36 x2ht64qclf7qyd vm1dd6fsb36zc 3hme9vfdotax1 45m8zc21tqcd lnuapyoztu0783 vkavb2dourqe1b2 s069pkjqe6t5t36 o7aq4dbrbxc shf03y64fecfh 86uys72ahsuhr pwm5iwo5rggddb sktnvm0ab53 cp6xgbf4vg0q2r gcmwhden4e3w8n hw7sqodzwt8 4q1zruplu7 18ji4zziy3iom mg5q2ex7m0wdu 8jj1mpv8xlqw l4zdtlu8myg hhtee5rr0smv